欢迎光临
我们一直在努力

封神榜·妖灭 | 主演 孙雪宁 周浩东 许凝 [国语/中字]

封神榜·妖灭 | 主演 孙雪宁 周浩东 许凝 [国语/中字]插图
◎译  名
◎片  名 封神榜·妖灭
◎年  代 2020
◎产  地 中国大陆
◎类  别 古装
◎语  言 汉语普通话
◎上映日期 2020-03-13(中国大陆)
◎豆瓣评分 0/10 from 0 users
◎豆瓣链接 https://movie.douban.com/subject/34966382/
◎片  长 96分钟
◎导  演 海涛 Tao Hai
◎主  演 孙雪宁 Xuening Sun
周浩东 Haodong Zhou
许凝 Rick Xu
黄一晗 Yihan Huang
杨凯迪 Kaidi Yang

◎标  签 网络大电影 | 姜文 | 传记 | 大陆 | 励志

◎简  介

商朝末年,狐妖妲己受女娲之命入宫,纣王不仅是妲己的恩人,也是妲己恋慕之人。在经历后宫中的争斗以及姜子牙的铁血手段后,妲己逐渐明白人心的险恶,只有不择手段才能打破人妖殊途的命运。为爱成魔的妲己,拉拢骨魔绲娟,铲除忠臣。在鹿台“百妖宴”上,姜子牙从天而降,姜子牙和妲己的终极一战就此开启。
《封神榜·妖灭》区别于以往的封神故事塑造,以一种新的视角重新解读妲己这一角色,并重新演绎了妲己与纣王这段千年虐恋。妲己本来是小心翼翼求生存的小妖,但看透了人心的凉薄,无论如何都爱而不得,从而剧变成执念横生的红颜祸水。
引用

General
Complete name : \Feng Shen Bang:Yao Mie.2020.WEB-DL.1080p.H265.AAC-PTHome\Feng Shen Bang:Yao Mie.2020.WEB-DL.1080p.H265.AAC-PTHome.mp4
Format : MPEG-4
Format profile : Base Media
Codec ID : isom (isom/iso2/mp41)
File size : 791 MiB
Duration : 1 h 36 min
Overall bit rate : 1 141 kb/s
Writing application : Lavf58.12.100

Video
ID : 1
Format : HEVC
Format/Info : High Efficiency Video Coding
Format profile : Main@L4@Main
Codec ID : hev1
Codec ID/Info : High Efficiency Video Coding
Duration : 1 h 36 min
Bit rate : 1 010 kb/s
Width : 1 920 pixels
Height : 816 pixels
Display aspect ratio : 2.35:1
Frame rate mode : Constant
Frame rate : 24.000 FPS
Color space : YUV
Chroma subsampling : 4:2:0
Bit depth : 8 bits
Bits/(Pixel*Frame) : 0.027
Stream size : 701 MiB (89%)
Codec configuration box : hvcC

Audio
ID : 2
Format : AAC LC
Format/Info : Advanced Audio Codec Low Complexity
Codec ID : mp4a-40-2
Duration : 1 h 36 min
Bit rate mode : Constant
Bit rate : 125 kb/s
Channel(s) : 2 channels
Channel layout : L R
Sampling rate : 44.1 kHz
Frame rate : 43.066 FPS (1024 SPF)
Compression mode : Lossy
Stream size : 86.6 MiB (11%)
Default : Yes
Alternate group : 1

image

 收藏 (0) 打赏

您可以选择一种方式赞助本站

支付宝扫一扫赞助

微信钱包扫描赞助

未经允许不得转载:君相见的博客 » 封神榜·妖灭 | 主演 孙雪宁 周浩东 许凝 [国语/中字]

分享到: 生成海报

评论 4

  • QQ号
  • 昵称 (必填)
  • 邮箱 (必填)
  • 网址
  1. #1
    avatar

    封神榜·妖灭 | 主演 孙雪宁 周浩东 许凝 [国语/中字]

    187518291年前 (2020-03-14)国内网友谷歌浏览器 Windows 10 回复
  2. #2
    avatar

    回复本文

    °1年前 (2020-03-14)国内网友谷歌浏览器 Windows 10 回复
  3. #3
    avatar

    好看不

    kdy1年前 (2020-03-15)国内网友谷歌浏览器  LYA-AL00 Build/HUAWEILYA-AL00 回复
  4. #4
    avatar

    不怎么好看

    淡淡的┒思绪1年前 (2020-03-15)国内网友谷歌浏览器  LYA-AL00) AppleWebKit/537.36 (KHTML, like Gecko) Chrome/70.0.3538.64 HuaweiBrowser/10.0.5.300 Mobile Safari/537.36 回复

切换注册

登录

忘记密码 ?

切换登录

注册